adiohead - Late Night With Jimmy Fallon, Give Up The Ghost 2011.10.03 HDTV 1080i
 

Radiohead
Late Night With Jimmy Fallon

October, 3 2011

HDTV 1080i

Set list:

– Give Up The Ghost

 

 

Video

ID: 1984 (0x7C0)

Menu ID: 1 (0x1)

Format: MPEG Video

Format version: Version 2

Format profile: Main@High

Format settings, BVOP: Yes

Format settings, Matrix: Default

Codec ID: 2

Duration: 5mn 5s

Bit rate mode: Variable

Bit rate: 9 564 Kbps

Nominal bit rate: 20.0 Mbps

Width: 1 920 pixels

Height: 1 080 pixels

Display aspect ratio: 16:9

Frame rate: 29.970 fps

Color space: YUV

Chroma subsampling: 4:2:0

Bit depth: 8 bits

Scan type: Interlaced

Scan order: Top Field First

Bits/(Pixel*Frame): 0.154

Stream size: 349 MiB (91%)

Audio

ID: 1985 (0x7C1)

Menu ID: 1 (0x1)

Format: AC-3

Format/Info: Audio Coding 3

Mode extension: CM (complete main)

Codec ID: 129

Duration: 5mn 5s

Bit rate mode: Constant

Bit rate: 384 Kbps

Channel(s): 6 channels

Channel positions: Front: L C R, Side: L R, LFE

Sampling rate: 48.0 KHz

Bit depth: 16 bits

Stream size: 14.0 MiB (4%)

Language: English

Md5: 9c5aa90c13d2056642bacb60f7f7523

 

Torrent here

if not : here or here (courtesy of Antism)

and a better audio from this video (FLAC MP3 AC3) : here (courtesy of Antism)